<?xml version="1.0" standalone="no"?>
<!DOCTYPE svg PUBLIC "-//W3C//DTD SVG 1.1//EN" "http://www.w3.org/Graphics/SVG/1.1/DTD/svg11.dtd" >
<svg xmlns="http://www.w3.org/2000/svg">
<defs>
  <font id="iconfont" horiz-adv-x="1000">
    <font-face font-family="iconfont"
      units-per-em="1000" ascent="1000"
      descent="0" />
    <missing-glyph horiz-adv-x="0" />
    <glyph glyph-name="access-droits"
      unicode="&#xEA01;"
      horiz-adv-x="1000" d="M573.13 1000L0 573.1800000000001L426.6 0L1000 426.8300000000001L573.13 1000z" />
    <glyph glyph-name="angle-down"
      unicode="&#xEA02;"
      horiz-adv-x="1000" d="M500 195.9400000000001L0 695.94L108.11 804.06L500 412.17L891.89 804.06L1000 695.94L500 195.9400000000001z" />
    <glyph glyph-name="angle-left"
      unicode="&#xEA03;"
      horiz-adv-x="1000" d="M195.94 500L695.94 0L804.06 108.11L412.17 500L804.06 891.89L695.94 1000L195.94 500z" />
    <glyph glyph-name="angle-right"
      unicode="&#xEA04;"
      horiz-adv-x="1000" d="M804.06 500L304.06 0L195.94 108.11L587.83 500L195.94 891.89L304.06 1000L804.06 500z" />
    <glyph glyph-name="angle-up"
      unicode="&#xEA05;"
      horiz-adv-x="1000" d="M500 804.06L0 304.06L108.11 195.9400000000001L500 587.8299999999999L891.89 195.9400000000001L1000 304.06L500 804.06z" />
    <glyph glyph-name="arrow-down"
      unicode="&#xEA06;"
      horiz-adv-x="1000" d="M999.81 562.27L940.53 614.96L539.67 163.99L539.67 1000L460.36 1000L460.36 163.99L59.53 614.96L0.19 562.27L500.01 0L999.81 562.27z" />
    <glyph glyph-name="arrow-left"
      unicode="&#xEA07;"
      horiz-adv-x="1000" d="M562.27 999.81L614.96 940.53L163.99 539.6700000000001L1000 539.6700000000001L1000 460.36L163.99 460.36L614.96 59.53L562.27 0.1900000000001L0 500.01L562.27 999.81z" />
    <glyph glyph-name="arrow-right"
      unicode="&#xEA08;"
      horiz-adv-x="1000" d="M437.73 999.81L385.04 940.53L836.01 539.6700000000001L0 539.6700000000001L0 460.36L836.01 460.36L385.04 59.53L437.73 0.1900000000001L1000 500.01L437.73 999.81z" />
    <glyph glyph-name="arrow-up"
      unicode="&#xEA09;"
      horiz-adv-x="1000" d="M999.81 437.73L940.53 385.04L539.67 836.01L539.67 0L460.36 0L460.36 836.01L59.53 385.04L0.19 437.73L500.01 1000L999.81 437.73z" />
    <glyph glyph-name="calendar"
      unicode="&#xEA0A;"
      horiz-adv-x="1000" d="M796.35 865.2V906.3A95.31 95.31 0 0 1 701.14 1001.5H700.41A95.31 95.31 0 0 1 605.2 906.3V867.36H420.92V906.3A95.31 95.31 0 0 1 325.7200000000001 1001.5H325A95.31 95.31 0 0 1 229.79 906.3V867.36H229.2200000000001C139.5800000000001 867.36 66.65 794.4300000000001 66.65 704.79V164.0700000000001C66.65 74.4300000000001 139.5800000000001 1.5 229.2200000000001 1.5H769.92C859.56 1.5 932.49 74.4300000000001 932.49 164.0699999999999V704.79C932.49 785.4300000000001 873.46 852.54 796.35 865.2zM662.2 906.3A38.25 38.25 0 0 0 700.4100000000001 944.5H701.1400000000001A38.25 38.25 0 0 0 739.3500000000001 906.3V771.42A38.25 38.25 0 0 0 701.1400000000001 733.21H700.4100000000001A38.25 38.25 0 0 0 662.2 771.42V906.3zM286.7700000000001 906.3A38.25 38.25 0 0 0 325 944.5H325.74A38.25 38.25 0 0 0 363.94 906.3V771.42A38.25 38.25 0 0 0 325.74 733.21H325A38.25 38.25 0 0 0 286.79 771.42V906.3zM229.2 810.36H229.77V771.4200000000001A95.32 95.32 0 0 1 325 676.21H325.74A95.31 95.31 0 0 1 420.94 771.42V810.36H605.2V771.4200000000001A95.32 95.32 0 0 1 700.4100000000001 676.21H701.1400000000001A95.32 95.32 0 0 1 796.3500000000001 771.4200000000001V807A105.76 105.76 0 0 0 875.4900000000001 704.78V632.5999999999999H123.63V704.79A105.69 105.69 0 0 0 229.2 810.36zM769.92 58.5H229.2A105.69 105.69 0 0 0 123.63 164.0700000000001V575.61H875.49V164.0700000000001A105.69 105.69 0 0 0 769.92 58.5z" />
    <glyph glyph-name="camera"
      unicode="&#xEA0B;"
      horiz-adv-x="1000" d="M998 725L780.72 483.58V654.0699999999999A220.37 220.37 0 0 1 560.36 874.4300000000001H2V316.0700000000001A220.37 220.37 0 0 1 222.36 95.71H780.72V398.52L998 187.27zM726.28 150.15H222.36C130.87 150.15 56.44 224.5799999999999 56.44 316.07V820H560.36C651.85 820 726.28 745.5699999999999 726.28 654.08zM943.56 316.15L815.39 440.73L943.56 583.14z" />
    <glyph glyph-name="chat-bubble"
      unicode="&#xEA0C;"
      horiz-adv-x="1000" d="M499.75 676A44.45 44.45 0 1 1 499.75 587.1A44 44 0 0 1 544.25 631.6A44.58 44.58 0 0 1 499.75 676zM327.25 676A44.45 44.45 0 1 1 371.75 631.6A44.51 44.51 0 0 1 327.25 676zM672.75 676A44.45 44.45 0 1 1 717.15 631.6A44.45 44.45 0 0 1 672.75 676zM826.75 1000H173.25C89.85 1000 21.65 931.8 21.65 848.4V412.2000000000001C21.65 328.4000000000001 89.85 260.6 173.25 260.6H206.85V27.7C206.85 16 213.65 5.8000000000001 224.35 1.9000000000001A22.39 22.39 0 0 1 234.05 1e-13A26 26 0 0 1 254.55 9.7000000000002L471 260.7000000000001H826.8C910.1 260.7000000000001 978.4 328.4000000000001 978.4 412.3000000000001V848.4C978.25 931.8 910.05 1000 826.75 1000zM923.25 412.3C923.25 358.7 879.85 315.3 826.75 315.3H458.25A26.94 26.94 0 0 1 437.75 306L261.45 101.4V288A27.27 27.27 0 0 1 234.15 315.3H173.25C120.15 315.3 76.25 358.7 76.25 412.3V848.4C76.25 901.5 120.15 944.9 173.25 944.9H826.75C879.85 944.9 923.25 901.5 923.25 848.4z" />
    <glyph glyph-name="chat-bubbles"
      unicode="&#xEA0D;"
      horiz-adv-x="1000" d="M521.6407127610778 377.1544289145994A37.2 37.2 0 0 1 592.8464905093625 398.7205415745553A37.2 37.2 0 0 1 521.6407127610778 377.1544289145994M624.8 387.87A37.2 37.2 0 0 1 699.2 387.87A37.2 37.2 0 0 1 624.8 387.87M735.1566594280478 368.3560832869496A37.2 37.2 0 0 1 798.4433553518663 407.4732677337644A37.2 37.2 0 0 1 735.1566594280478 368.3560832869496M154.6243360419282 732.1119524957451A37.2 37.2 0 0 1 225.8301137902127 753.6780651557009A37.2 37.2 0 0 1 154.6243360419282 732.1119524957451M257.8 742.87A37.2 37.2 0 0 1 332.2 742.87A37.2 37.2 0 0 1 257.8 742.87M368.1584620804582 723.3318139452095A37.2 37.2 0 0 1 431.4451580042768 762.4489983920244A37.2 37.2 0 0 1 368.1584620804582 723.3318139452095M965.62 639.28H662V951.9A34.38 34.38 0 0 1 627.62 986.28H34.38A34.38 34.38 0 0 1 0 951.9V534.35A34.37 34.37 0 0 1 34.38 500H119.25L248.53 331.11A16.32 16.32 0 0 1 261.67 324.49C270.49 324.49 279.0800000000001 331.42 278.61 342.05L271.61 499.98H338V187.35A34.37 34.37 0 0 1 372.38 153H448V17.61A16.51 16.51 0 0 1 464.71 1A16.14 16.14 0 0 1 477.41 7.14L596 153L965.62 153A34.37 34.37 0 0 1 1000 187.35V604.9A34.38 34.38 0 0 1 965.62 639.28zM338 604.9V554H215.12L217.63 497.59L219.39 458L162.13 532.8L145.92 554H54V932.28H608V639.28H372.38A34.38 34.38 0 0 1 338 604.9zM946 207L596 207H570.31L554.1 187.0700000000001L502 123V207H392V585.28H608V585H662V585.28H946z" />
    <glyph glyph-name="check"
      unicode="&#xEA0E;"
      horiz-adv-x="1000" d="M293.1 304.4L104 493.5L0 389.5L249.6 140L249.9 140.3L295.4 94.6999999999999L1000 799.3L894 905.3z" />
    <glyph glyph-name="close"
      unicode="&#xEA0F;"
      horiz-adv-x="1000" d="M1000 899.2L899.2 1000L500 600.8L100.8 1000L0 899.2L399.2 500L0 100.8L100.8 0L500 399.2000000000001L899.2 0L1000 100.8L600.8 500z" />
    <glyph glyph-name="compass"
      unicode="&#xEA10;"
      horiz-adv-x="1000" d="M287.73 255.3200000000001A32.45 32.45 0 0 1 300.36 257.9300000000001L598.79 385.86A31.72 31.72 0 0 1 615.52 402.5900000000001L743.45 701A32 32 0 0 1 701.45 743L403 615.0699999999999A31.79 31.79 0 0 1 386.27 598.3399999999999L258.38 299.9A32.07 32.07 0 0 1 287.73 255.32zM440 561.37L653.1800000000001 652.73L561.82 439.55L348.64 348.1900000000001zM146.68 146.23C342.07 -48.9099999999999 658.6800000000001 -48.71 853.78 146.6800000000001S1048.71 658.6800000000001 853.3299999999999 853.7700000000001S341.33 1048.71 146.2399999999999 853.3200000000002A500 500 0 0 1 146.6799999999999 146.23zM98.3 670.56C192.24 893.56 449.19 998.23 672.2099999999999 904.29S999.88 553.4 905.94 330.37S555.05 2.71 332 96.65A438.1499999999999 438.1499999999999 0 0 0 98.3 670.56zM458.35 500.6A42.68 42.68 0 0 1 543.7099999999999 500.6A42.68 42.68 0 0 1 458.35 500.6" />
    <glyph glyph-name="download"
      unicode="&#xEA11;"
      horiz-adv-x="1000" d="M920.1 67.08H79.9A33.54 33.54 0 1 1 79.9 0H920.1A33.54 33.54 0 0 1 920.1 67.08zM493.18 112.8200000000001L903.78 523.4200000000001A33.54 33.54 0 1 1 856.35 570.8500000000001L493.18 207.68L144.49 556.37A33.54 33.54 0 0 1 97.05 508.94zM499.8 346.67A33.54 33.54 0 0 1 533.34 380.2099999999999V966.46A33.54 33.54 0 0 1 466.26 966.46V380.2100000000001A33.54 33.54 0 0 1 499.8 346.67z" />
    <glyph glyph-name="error"
      unicode="&#xEA12;"
      horiz-adv-x="1000" d="M853.65 853.7C658.65 1048.7 341.25 1048.7 146.25 853.7S-48.75 341.3 146.25 146.3S658.65 -48.7 853.65 146.3S1048.75 658.6999999999999 853.65 853.6999999999999zM697.25 302.7000000000001A38.51 38.51 0 0 0 642.85 302.7000000000001L500 445.6L350.35 296A38.47 38.47 0 0 0 296 350.4L445.55 500L302.65 642.9A38.47 38.47 0 0 0 357.05 697.3L500 554.4L636 690.4A38.47 38.47 0 1 0 690.4 636L554.4 500L697.3 357.1A38.51 38.51 0 0 0 697.25 302.7000000000001z" />
    <glyph glyph-name="info"
      unicode="&#xEA13;"
      horiz-adv-x="1000" d="M450 250H550V550H450zM500 1000C222.5 1000 0 777.5 0 500S222.5 0 500 0S1000 225 1000 500S775 1000 500 1000zM500 100C280.1 100 100 280.1 100 500S280.1 900 500 900S900 719.9 900 500S719.9 100 500 100zM450 650H550V750H450z" />
    <glyph glyph-name="information"
      unicode="&#xEA14;"
      horiz-adv-x="1000" d="M428.57 714.29H571.4300000000001V0H428.5700000000001V714.29zM392.86 892.86A107.14 107.14 0 0 1 607.14 892.86A107.14 107.14 0 0 1 392.86 892.86" />
    <glyph glyph-name="insertion-solidarite"
      unicode="&#xEA15;"
      horiz-adv-x="1000" d="M0 675.23L840.55 0L1000 1000L0 675.23z" />
    <glyph glyph-name="jeunesse"
      unicode="&#xEA16;"
      horiz-adv-x="1000" d="M793.82 948.81L293.88 1000L0 551.3L206.39 51.12L706.32 0L1000 448.63L793.82 948.81z" />
    <glyph glyph-name="logement"
      unicode="&#xEA17;"
      horiz-adv-x="1000" d="M0 500A500 500 0 0 1 1000 500A500 500 0 0 1 0 500" />
    <glyph glyph-name="marker"
      unicode="&#xEA18;"
      horiz-adv-x="1000" d="M509.27 1A26.93 26.93 0 0 0 486.1 14.1900000000001C485.3699999999999 15.4200000000001 411.97 139.2700000000001 339.56 281.1900000000001C296.88 364.86 262.83 438.4600000000001 238.35 500C206.42 580.21 190.9 639 190.9 679.69A318.37 318.37 0 0 0 827.64 679.69C827.64 638.99 812.12 580.21 780.1899999999999 500C755.71 438.4600000000001 721.66 364.86 679 281.2000000000001C606.59 139.27 533.19 15.4200000000001 532.46 14.2A27 27 0 0 0 509.27 1zM509.27 944.11A264.48 264.48 0 0 1 244.79 679.65C244.79 656.77 252.36 610.48 288.42 519.89C312.2800000000001 459.9399999999999 345.64 387.89 387.56 305.6900000000001C434.61 213.46 482.05 129 509.27 81.58C536.52 129.0700000000001 584 213.64 631.1 305.93C673 388.06 706.32 460.09 730.17 520C766.17 610.51 773.75 656.78 773.75 679.64A264.48 264.48 0 0 1 509.27 944.11zM509.27 528.2C425.8 528.2 357.9 596.14 357.9 679.65S425.8 831 509.27 831S660.67 763.0799999999999 660.67 679.6S592.75 528.2 509.27 528.2zM509.27 777.2A97.53 97.53 0 1 1 606.77 679.69A97.6 97.6 0 0 1 509.27 777.16z" />
    <glyph glyph-name="megaphone"
      unicode="&#xEA19;"
      horiz-adv-x="1000" d="M983 432.14L680.57 956A67.69 67.69 0 0 1 555.9 907.35L281.09 590.54A54.23 54.23 0 0 1 245.67 583.83L127.58 515.65A54.76 54.76 0 0 1 100.47 463.28L46.93 432.37A89.84 89.84 0 0 1 14.05 309.64L59.05 231.7100000000001A89.75 89.75 0 0 1 181.78 198.8200000000001L235.34 229.75A54.79 54.79 0 0 1 283.27 222.21C301.95 219.61 321.54 212.38 324.93 206.4500000000001C339.59 180.8000000000001 418.77 52.33 422.13 46.8800000000001L436.57 23.4500000000002L486.5699999999999 55.6200000000001A79.7 79.7 0 0 1 511.24 164.7000000000001L424.4100000000001 304.7000000000001A54.17 54.17 0 0 1 434.48 319.4500000000001L869 359.5A67.21 67.21 0 0 1 906.94 332.91A68.16 68.16 0 0 1 924.57 330.58A67.73 67.73 0 0 1 983 432.14zM430.32 373.3L324 557.54L582.34 855.42L838.94 411zM154.77 245.5900000000001A35.84 35.84 0 0 0 105.77 258.7100000000001L60.77 336.6400000000001A35.84 35.84 0 0 0 73.89 385.6400000000001L123.15 414L204 274zM266.33 274L154.33 468A0.58 0.58 0 0 0 154.27 468.49A0.54 0.54 0 0 0 154.57 468.88L272.66 537.06A0.56 0.56 0 0 0 272.96 537.15A0.65 0.65 0 0 0 273.15 537.15A0.59 0.59 0 0 0 273.55 536.8399999999999L385.55 342.8399999999999A0.65 0.65 0 0 0 385.31 341.95H385.31L267.2200000000001 273.79A0.65 0.65 0 0 0 266.33 274zM469.22 122.68A25.63 25.63 0 0 0 457.4 101L453.67 98.6C429.47 137.96 382.32 214.8100000000001 371.81 233.2000000000001C365.92 243.51 356.98 251.4000000000001 346.95 257.4300000000001L378.7699999999999 275.8000000000001L465.3499999999999 136.2000000000001A25.67 25.67 0 0 0 469.22 122.68zM931.22 386.44A13.69 13.69 0 0 0 912.52 391.44L610.1 915.34A13.69 13.69 0 0 0 633.81 929L936.28 405.14A13.71 13.71 0 0 0 931.26 386.4400000000001z" />
    <glyph glyph-name="notif-2"
      unicode="&#xEA1A;"
      horiz-adv-x="1000" d="M978.09 215.47C977.74 215.84 942.02 253.2000000000001 916.99 320.89A401.2400000000001 401.2400000000001 0 0 0 892.64 445.89C890.6899999999999 500.43 899.24 557.47 918.07 615.43C918.18 615.76 918.33 616.22 918.53 616.8C936.06 668.4399999999999 938.36 712.67 937.2 740.6899999999999C935.72 776.4699999999999 927.83 809.8 913.7499999999998 839.78C896.4099999999999 876.6999999999999 869.7499999999999 908.48 834.3899999999999 934.23C814.9099999999999 948.46 771.3899999999999 971.04 737.6599999999999 981.98C704.52 992.8 655.35 1000.25 631.66 1000.25H631.3199999999999C587.52 1000.17 547.18 990.13 511.41 970.39C482.41 954.39 456.41 931.99 434.15 903.86C416.75 881.86 392.64 844.69 376.61 792.78C376.44 792.23 376.3 791.78 376.22 791.55C357.39 733.55 330.78 682.4100000000001 297.14 639.4300000000001A401.13 401.13 0 0 0 203.94 552.59C143.89 512.53 93 503.3 92.6 503.23A27.47 27.47 0 0 1 71 484.62C40.5 390.62 16.48 316.81 16.24 316.07A27.48 27.48 0 0 1 33.87 281.44L282.74 200.5799999999999C280.64 166.65 291.0900000000001 131.9899999999999 312.64 102.0699999999999C335.58 70.2099999999999 369.93 45.6099999999999 409.32 32.8199999999999A199.37 199.37 0 0 1 470.92 23A183 183 0 0 1 528.71 32.17C563.5400000000001 43.76 592.1600000000001 65.5999999999999 610.32 94.17L895.1700000000001 1.6099999999999A27.48 27.48 0 0 1 929.79 19.2499999999999L984.56 187.8A27.33 27.33 0 0 1 978.09 215.47zM511.35 84.28C485.01 75.51 454.83 75.79 426.35 85.0699999999999S373.43 111.7299999999999 357.26 134.18C346.36 149.3199999999999 339.78 166.02 337.97 182.65L555.14 112.0799999999999C543.94 99.75 528.94 90.13 511.35 84.28zM886 62.34L77 325.2100000000001C85.85 352.4400000000001 100.88 398.6700000000001 118.49 452.9300000000001C141.07 459.0500000000001 183.84 473.6300000000001 231.87 505.1900000000001A455.1999999999999 455.1999999999999 0 0 1 339.14 603.95C377.36 652.36 407.42 709.76 428.5 774.6500000000001C428.65 775.11 428.85 775.76 429.1 776.57C442.63 820.37 462.76 851.44 477.26 869.79C516.77 919.79 568.64 945.2 631.45 945.3H631.6700000000001C648.5600000000001 945.3 691.4000000000001 939.3 720.6700000000001 929.75S788.4200000000001 899.75 801.99 889.88C852.64 852.94 879.66 801.99 882.29 738.44C883.29 715.1000000000001 881.29 678.1100000000001 866.49 634.5C866.2 633.6200000000001 865.96 632.9300000000001 865.8 632.4300000000001C844.8 567.6300000000001 835.3299999999999 503.5200000000001 837.8 441.9000000000001A455.1800000000001 455.1800000000001 0 0 1 866.53 299A429.8300000000001 429.8300000000001 0 0 1 891.41 244.77L310.41 433.57L293.41 381.31L923.16 176.64z" />
    <glyph glyph-name="notif"
      unicode="&#xEA1B;"
      horiz-adv-x="1000" d="M904.76 179C903.96 180.2000000000001 824.76 301.28 824.76 461V673.7C824.76 761.54 791.15 843.7 730.13 904.94S587.28 1000 499.74 1000S330.37 966.24 269.32 904.94S174.68 761.54 174.68 673.7V461C174.68 378.28 153.07 306.23 134.93 260.35C115.07 210.11 94.93 179.29 94.71 179.02A28.53 28.53 0 0 1 118.45 134.6999999999999H316.58A160.58 160.58 0 0 1 361.27 47.0699999999999C391.61 16.7099999999999 432.81 -0.0100000000001 477.27 -0.0100000000001S562.97 16.7099999999999 593.27 47.0699999999999A160.66 160.66 0 0 1 638 134.71H881A28.53 28.53 0 0 1 904.76 179zM477.31 57C426.79 57 386.65 88.86 374.81 134.65H579.81C568 88.92 527.83 57.06 477.31 57.06zM166.85 191.76C173.21 204.65 180.26 220.1 187.29 237.76C207.54 288.6 231.68 368.6 231.68 461.03V673.7C231.68 746.3299999999999 259.38 814.15 309.68 864.7S427.46 942.94 499.74 942.94S639.51 915.14 689.74 864.66S767.74 746.3299999999999 767.74 673.66V461C767.74 368.57 791.88 288.57 812.13 237.73C819.13 220.09 826.21 204.64 832.57 191.73z" />
    <glyph glyph-name="options"
      unicode="&#xEA1C;"
      horiz-adv-x="1000" d="M38.3733905932737 407.3666094067262A131 131 0 0 1 223.6353672641493 592.6285860776017A131 131 0 0 1 38.3733905932737 407.3666094067262M369 500A131 131 0 0 1 631 500A131 131 0 0 1 369 500M776.3681951089459 407.3714139223984A131 131 0 0 1 961.6301717798212 592.6333905932737A131 131 0 0 1 776.3681951089459 407.3714139223984" />
    <glyph glyph-name="paperclip"
      unicode="&#xEA1D;"
      horiz-adv-x="1000" d="M462 67.8200000000001H462A27 27 0 0 0 462 106.0700000000001L847.3 491.4C916.35 560.46 933.8699999999998 582.18 933.8699999999998 620.68L933.8699999999998 621.9599999999999L943.8699999999998 832.28A65.9 65.9 0 0 1 878.6499999999999 897.5099999999999L667.6499999999999 887.5099999999999H667.0099999999999C632.4699999999999 887.5099999999999 612.3799999999999 876.77 536.8699999999999 801.2499999999999L78.75 343A84.74 84.74 0 0 1 78.75 223.64L166.33 136.0699999999999A84.73 84.73 0 0 1 285.68 136.0699999999999L706.35 556.76A10.25 10.25 0 0 1 706.35 571.05L617.35 660.05A10.19 10.19 0 0 1 603.0600000000001 660.05L255.0600000000001 312.05A27.05 27.05 0 0 0 216.8100000000001 312.05H216.8100000000001A27 27 0 0 0 216.8100000000001 350.3L564.8100000000001 698.3A64.29 64.29 0 0 0 655.6 698.3L744.6 609.3A64.27 64.27 0 0 0 744.6 518.51L323.94 97.85A137.52 137.52 0 0 0 226 57.42H226A137.52 137.52 0 0 0 128.08 97.8499999999999L40.5 185.42C-13.5 239.42 -13.5 327.28 40.5 381.28L498.69 839.46C565.54 906.32 603.46 941.32 666.4 941.56L877.45 951.56H878.09A120 120 0 0 0 998 831.69L998 830.41L988 620C987.76 558.0799999999999 954.5 522.0699999999999 885.58 453.14L500.22 67.8200000000001A27 27 0 0 0 462 67.8200000000001z" />
    <glyph glyph-name="parentalite"
      unicode="&#xEA1E;"
      horiz-adv-x="1000" d="M0 1000L0 0L1000 0L0 1000z" />
    <glyph glyph-name="pencil"
      unicode="&#xEA1F;"
      horiz-adv-x="1000" d="M971.3 852.69L855 969A98.39 98.39 0 0 1 716 969L638.76 891.75L639.33 891.1800000000001L134.69 386.49A26.83 26.83 0 0 1 128.47 376.74L4.82 37.83A26.76 26.76 0 0 1 39 3.49L379.13 126.3A26.83 26.83 0 0 1 388.97 132.55L893.47 637L894.0600000000001 636.4100000000001L971.3 713.7A98.49 98.49 0 0 1 971.3 852.7zM747.51 783L275.4100000000001 310.9400000000001L205.12 381.23L677.2 853.3199999999999zM171.67 339L341.17 169.49L202.86 119.55L121.34 201.0699999999999zM101.11 145.62L147.26 99.47L74.72 73.27zM383.54 202.81L313.25 273.1L785.35 745.1700000000001L855.63 674.9000000000001zM933.46 751.55L894.0600000000001 712.1500000000001L714.47 891.73L753.87 931.14A44.84 44.84 0 0 0 817.1800000000001 931.14L933.46 814.85A45 45 0 0 0 933.46 751.55z" />
    <glyph glyph-name="phone"
      unicode="&#xEA20;"
      horiz-adv-x="1000" d="M822.39 0C368.9100000000001 0 0 368.92 0 822.4A16.79 16.79 0 0 0 4.92 834.21L160.92 990.21A33.55 33.55 0 0 0 208.38 990.21L419.56 778.95A33.56 33.56 0 0 0 419.56 731.48L275.4700000000001 587.39L587.39 275.48L731.48 419.5700000000001A33.57 33.57 0 0 0 778.94 419.5700000000001L990.17 208.34A33.57 33.57 0 0 0 990.17 160.88L834.17 4.88A16.8 16.8 0 0 0 822.3499999999999 -0.04z" />
    <glyph glyph-name="play"
      unicode="&#xEA21;"
      horiz-adv-x="1000" d="M26.31 1000V0L973.69 473.6900000000001zM96.87 880.0699999999999L822.47 477L96.87 114.16z" />
    <glyph glyph-name="publications"
      unicode="&#xEA22;"
      horiz-adv-x="1000" d="M0 1000L324.77 0L1000 840.55L0 1000z" />
    <glyph glyph-name="quote"
      unicode="&#xEA23;"
      horiz-adv-x="1000" d="M756.1 865.85C621.39 865.85 512.2 756.65 512.2 621.95C512.2 517.46 577.9000000000001 428.32 670.2 393.5899999999999C683.44 388.5899999999999 681.87 375.8699999999999 663.9200000000001 314.2299999999999C645.6500000000001 251.5299999999999 564.4200000000001 134.1499999999999 564.4200000000001 134.1499999999999S692.1200000000001 238.4799999999999 739.8000000000001 270.5199999999999C772.32 292.3799999999999 837.3600000000001 357.9399999999999 848.2 368.8699999999999C932.07 453.38 1000 512.81 1000 621.95C1000 756.65 890.8 865.85 756.1 865.85zM243.9 865.85C109.2 865.85 0 756.65 0 621.95C0 517.46 65.7 428.3200000000001 158.05 393.5900000000001C171.28 388.5900000000001 169.72 375.87 151.76 314.23C133.5 251.53 52.27 134.15 52.27 134.15S180 238.48 227.64 270.52C260.16 292.38 325.2 357.94 336.04 368.87C419.88 453.38 487.8 512.81 487.8 621.95C487.8 756.65 378.61 865.85 243.9 865.85z" />
    <glyph glyph-name="search-user"
      unicode="&#xEA24;"
      horiz-adv-x="1000" d="M968.5 182.28L832.87 317.91A447.92 447.92 0 1 1 683 168.06L818.65 32.43A106 106 0 0 1 968.5 182.28zM603.61 187.89A393.58 393.58 0 0 0 297.32 913A393.58 393.58 0 0 0 603.61 187.89zM930.32 70.62A52 52 0 0 0 856.83 70.62L728 199.42A452.7799999999999 452.7799999999999 0 0 1 801.48 272.9L930.28 144.0999999999999A52 52 0 0 0 930.32 70.62zM702.17 449.28C686.2299999999999 492.6 660.02 518.64 624.25 526.71L573.03 541.71A167 167 0 0 1 618.11 656C618.11 748.45 542.91 823.65 450.47 823.65S282.82 748.42 282.82 656A167 167 0 0 1 327.91 541.75L276.68 526.75C240.91 518.6800000000001 214.68 492.64 198.7599999999999 449.32C184.9199999999999 411.69 179.12 363.32 174.9199999999999 316.69A27 27 0 0 1 199.38 287.38C200.21 287.3 201.0199999999999 287.27 201.84 287.27A27 27 0 0 1 228.7 311.8C237.17 405.8499999999999 250.23 465.8 289.05 474.14C289.7 474.28 290.35 474.4399999999999 290.98 474.63L384.26 502A167.55 167.55 0 0 1 516.67 502L610 474.63C610.64 474.4399999999999 611.28 474.28 611.93 474.14C650.76 465.8099999999999 663.81 405.85 672.29 311.8A27 27 0 0 1 699.15 287.2299999999999C699.9599999999999 287.2299999999999 700.78 287.2299999999999 701.6 287.3399999999999A27 27 0 0 1 726 316.65C721.82 363.3 716 411.65 702.17 449.28zM336.82 656A113.65 113.65 0 1 0 450.47 542.3299999999999A113.77 113.77 0 0 0 336.82 656z" />
    <glyph glyph-name="search"
      unicode="&#xEA25;"
      horiz-adv-x="1000" d="M991.58 49.25L738.58 301.79A421.42 421.42 0 1 1 33.07 743.25A421.39 421.39 0 0 1 698.2600000000001 261.55L951.3500000000003 8.9499999999999A28.47 28.47 0 1 1 991.5800000000002 49.2499999999999zM421.35 214.75A364.46 364.46 0 0 0 163.64 836.9300000000001A364.46 364.46 0 0 0 679.06 321.5A362 362 0 0 0 421.35 214.75z" />
    <glyph glyph-name="success"
      unicode="&#xEA26;"
      horiz-adv-x="1000" d="M470 30C211.5 30 0 241.5 0 500S211.5 970 470 970C557.5 970 645.1 946.5 717.7 899.5L672.9000000000001 826.8C613.2 865.2 542.7 884.6 470.0000000000001 884.6C258.5 884.6 85.6 711.5 85.6 500S258.7 115.4 470.2 115.4S854.7 288.5 854.7 500C854.7 538.4 850.4000000000001 570.5 842 600.5L923.3 624C934.1 585.6 940.3 544.9 940.3 497.9C940.1 241.5 728.6 30 470 30zM470 354.7000000000001L239.3 585.4L299.3 645.3L470 474.3L940.1 944.4L1000 884.6z" />
    <glyph glyph-name="warning"
      unicode="&#xEA27;"
      horiz-adv-x="1000" d="M450 350H550V250H450zM450 750H550V450H450zM500 1000C222.5 1000 0 777.5 0 500S222.5 0 500 0S1000 225 1000 500S775 1000 500 1000zM500 100C280.1 100 100 280.1 100 500S280.1 900 500 900S900 719.9 900 500S719.9 100 500 100z" />
  </font>
</defs>
</svg>
